Parks and Recreation S01 Season 1 720p 5.1Ch Web-DL ReEnc-DeeJayAhmed

seeders: 30
leechers: 12
updated:
Added by DeeJayStark89.4K in TV
Torrent verified. Downloaded 771 times.

DownloadFast Safe Anonymous
movies, software, shows...
Available in versions: 1080p720p480pHDTVWEBRipx264
Parks and Recreation S01 Season 1 720p 5.1Ch Web-DL ReEnc-DeeJayAhmed (Size: 1.02 GB)
  DeeJayAhmed Facebook Page.url 70 bytes
  DeeJayAhmed ReEncodes.txt 809 bytes
  DeeJayAhmed Website.url 53 bytes
  Parks.and.Recreation.S01E01.720p.5.1Ch.Web-DL.ReEnc-DeeJayAhmed.mkv 174 MB
  Parks.and.Recreation.S01E01.720p.5.1Ch.Web-DL.ReEnc-DeeJayAhmed.srt 33.13 KB
  Parks.and.Recreation.S01E02.720p.5.1Ch.Web-DL.ReEnc-DeeJayAhmed.mkv 172.63 MB
  Parks.and.Recreation.S01E02.720p.5.1Ch.Web-DL.ReEnc-DeeJayAhmed.srt 35.45 KB
  Parks.and.Recreation.S01E03.720p.5.1Ch.Web-DL.ReEnc-DeeJayAhmed.mkv 175.68 MB
  Parks.and.Recreation.S01E03.720p.5.1Ch.Web-DL.ReEnc-DeeJayAhmed.srt 34.11 KB
  Parks.and.Recreation.S01E04.720p.5.1Ch.Web-DL.ReEnc-DeeJayAhmed.mkv 174.21 MB
  Parks.and.Recreation.S01E04.720p.5.1Ch.Web-DL.ReEnc-DeeJayAhmed.srt 34.02 KB
  Parks.and.Recreation.S01E05.720p.5.1Ch.Web-DL.ReEnc-DeeJayAhmed.mkv 173.52 MB
  Parks.and.Recreation.S01E05.720p.5.1Ch.Web-DL.ReEnc-DeeJayAhmed.srt 35.39 KB
  Parks.and.Recreation.S01E06.720p.5.1Ch.Web-DL.ReEnc-DeeJayAhmed.mkv 176.71 MB
  Parks.and.Recreation.S01E06.720p.5.1Ch.Web-DL.ReEnc-DeeJayAhmed.srt 33.11 KB

Description


DeeJayAhmed
Keep Seeding!!=))
Do Comment On The A/V Quality Considering The Size Of The File..!


Video
ID : 1
Format : AVC
Format/Info : Advanced Video Codec
Format profile : [email protected]
Format settings, CABAC : Yes
Format settings, ReFrames : 8 frames
Codec ID : V_MPEG4/ISO/AVC
Duration : 21mn 33s
Bit rate : 948 Kbps
Width : 1 280 pixels
Height : 720 pixels
Display aspect ratio : 16:9
Frame rate mode : Constant
Frame rate : 23.976 (24000/1001) fps
Color space : YUV
Chroma subsampling : 4:2:0
Bit depth : 8 bits
Scan type : Progressive
Bits/(Pixel*Frame) : 0.043
Stream size : 146 MiB (84%)
Default : Yes
Forced : No

Audio
ID : 2
Format : AAC
Format/Info : Advanced Audio Codec
Format profile : HE-AAC / LC
Codec ID : A_AAC
Duration : 21mn 33s
Bit rate : 178 Kbps
Channel(s) : 6 channels
Channel positions : Front: L C R, Side: L R, LFE
Sampling rate : 48.0 KHz / 24.0 KHz
Frame rate : 23.438 fps (1024 spf)
Compression mode : Lossy
Delay relative to video : 31ms
Stream size : 27.5 MiB (16%)
Language : English
Default : Yes
Forced : No


Related Torrents

torrent name size files age seed leech

Sharing Widget


Download torrent
1.02 GB
seeders:35
leechers:10
Parks and Recreation S01 Season 1 720p 5.1Ch Web-DL ReEnc-DeeJayAhmed



To share this torrent use the code below and insert it into comments, status messages, forum posts or your signature.

Torrent: Parks and Recreation S01 Sea...1Ch Web-DL ReEnc-DeeJayAhmed

Trackers

tracker name
udp://tracker.openbittorrent.com:80/announce
udp://tracker.publicbt.com:80/announce
udp://tracker.coppersurfer.tk:6969/announce
udp://9.rarbg.me:2710/announce
udp://p4p.arenabg.com:1337/announce
http://tracker.trackerfix.com/announce
udp://9.rarbg.to:2710/announce
udp://tracker.opentrackr.org:1337/announce
http://tracker.dutchtracking.com/announce
µTorrent compatible trackers list

Locations

name
KickassTorrents
Torrent hash: 47251446F7F2CCB0C5351C6CF9009E17CBA4FD54

Top Comments

2
cluckyou4357
Dude, give him time!

Thanks, DeeJay. The versions I had of this before were HDTV with logos and did not include the extended cuts (from the DVDRips). Hopefully the WEB-DLs have the extended episodes.
2
SudoTheMan361
audio: 10video: 10
Wowow. I mean, I was just about to ask you to upload this, but then I immediately realised you don't like upload requests.
Its like you read my mind voice bro.
Wow.

THANKS A LOT :). Shall patiently wait for remaining 6 seasons :)

All Comments

audio
9/10
video
9/10
please, leave only comments related to that torrent
Sign In

audio: 10video: 10
thank u
audio: 9video: 9
thnx
audio: 10video: 10
Thank you !!!
audio: 10video: 10
Thanks!
audio: 10video: 10
Wowow. I mean, I was just about to ask you to upload this, but then I immediately realised you don't like upload requests.
Its like you read my mind voice bro.
Wow.

THANKS A LOT :). Shall patiently wait for remaining 6 seasons :)
audio: 10video: 10
Very good quality of video regarding the small file size and that it is x264 (not x265). Audio is fine too. I am very happy with this torrent. I had already the series downloaded from another source, however these file sizes are way smaller and the quality is also very good. I love that this is 720p and not 1080p, 720p works better for these series. x264 also plays directly on my TV.
One other great thing about all the DeeJayAhmed releases, he always includes subtitles and he always completes his series, so I expect the rest of the seasons soon!

Last edited by gkz, 1 week ago

Show More All

User Opinions

ExSavior54.02K, mayhem6148078, rik117767, sakib_shadman4920, Danz2073994, NicK9711407, iho8521011, stacefacek978, jer072692, tpalexk294 ... And 25 more
Report a bug Open chat
Sitemap