Parks and Recreation S03 Season 3 720p 5.1Ch Web-DL ReEnc-DeeJayAhmed

seeders: 42
leechers: 19
updated:
Added by DeeJayStark89.56K in TV
Torrent verified. Downloaded 147 times.

DownloadFast Safe Anonymous
movies, software, shows...
Available in versions: 1080p720p480pHDTVWEBRipx264
Parks and Recreation S03 Season 3 720p 5.1Ch Web-DL ReEnc-DeeJayAhmed (Size: 2.86 GB)
  DeeJayAhmed Facebook Page.url 70 bytes
  DeeJayAhmed ReEncodes.txt 809 bytes
  DeeJayAhmed Website.url 53 bytes
  Parks.and.Recreation.S03E01.720p.5.1Ch.Web-DL.ReEnc-DeeJayAhmed.mkv 174.73 MB
  Parks.and.Recreation.S03E01.720p.5.1Ch.Web-DL.ReEnc-DeeJayAhmed.srt 33.97 KB
  Parks.and.Recreation.S03E02.720p.5.1Ch.Web-DL.ReEnc-DeeJayAhmed.mkv 172.27 MB
  Parks.and.Recreation.S03E02.720p.5.1Ch.Web-DL.ReEnc-DeeJayAhmed.srt 33.56 KB
  Parks.and.Recreation.S03E03.720p.5.1Ch.Web-DL.ReEnc-DeeJayAhmed.mkv 172.51 MB
  Parks.and.Recreation.S03E03.720p.5.1Ch.Web-DL.ReEnc-DeeJayAhmed.srt 38.37 KB
  Parks.and.Recreation.S03E04.720p.5.1Ch.Web-DL.ReEnc-DeeJayAhmed.mkv 172.54 MB
  Parks.and.Recreation.S03E04.720p.5.1Ch.Web-DL.ReEnc-DeeJayAhmed.srt 34 KB
  Parks.and.Recreation.S03E05.720p.5.1Ch.Web-DL.ReEnc-DeeJayAhmed.mkv 171.52 MB
  Parks.and.Recreation.S03E05.720p.5.1Ch.Web-DL.ReEnc-DeeJayAhmed.srt 35.54 KB
  Parks.and.Recreation.S03E06.720p.5.1Ch.Web-DL.ReEnc-DeeJayAhmed.mkv 173.1 MB
  Parks.and.Recreation.S03E06.720p.5.1Ch.Web-DL.ReEnc-DeeJayAhmed.srt 35.59 KB
  Parks.and.Recreation.S03E07.720p.5.1Ch.Web-DL.ReEnc-DeeJayAhmed.mkv 211.77 MB
  Parks.and.Recreation.S03E07.720p.5.1Ch.Web-DL.ReEnc-DeeJayAhmed.srt 44.57 KB
  Parks.and.Recreation.S03E08.720p.5.1Ch.Web-DL.ReEnc-DeeJayAhmed.mkv 172.61 MB
  Parks.and.Recreation.S03E08.720p.5.1Ch.Web-DL.ReEnc-DeeJayAhmed.srt 37.2 KB
  Parks.and.Recreation.S03E09.720p.5.1Ch.Web-DL.ReEnc-DeeJayAhmed.mkv 172.85 MB
  Parks.and.Recreation.S03E09.720p.5.1Ch.Web-DL.ReEnc-DeeJayAhmed.srt 36.27 KB
  Parks.and.Recreation.S03E10.720p.5.1Ch.Web-DL.ReEnc-DeeJayAhmed.mkv 172.3 MB
  Parks.and.Recreation.S03E10.720p.5.1Ch.Web-DL.ReEnc-DeeJayAhmed.srt 36.18 KB
  Parks.and.Recreation.S03E11.Extended.720p.5.1Ch.Web-DL.ReEnc-DeeJayAhmed.mkv 215.23 MB
  Parks.and.Recreation.S03E11.Extended.720p.5.1Ch.Web-DL.ReEnc-DeeJayAhmed.srt 46.2 KB
  Parks.and.Recreation.S03E12.720p.5.1Ch.Web-DL.ReEnc-DeeJayAhmed.mkv 170.25 MB
  Parks.and.Recreation.S03E12.720p.5.1Ch.Web-DL.ReEnc-DeeJayAhmed.srt 36.47 KB
  Parks.and.Recreation.S03E13.Extended.720p.5.1Ch.Web-DL.ReEnc-DeeJayAhmed.mkv 202.57 MB
  Parks.and.Recreation.S03E13.Extended.720p.5.1Ch.Web-DL.ReEnc-DeeJayAhmed.srt 43.75 KB
  Parks.and.Recreation.S03E14.720p.5.1Ch.Web-DL.ReEnc-DeeJayAhmed.mkv 173.18 MB
  And 4 files more

Description


DeeJayAhmed
Keep Seeding!!=))
Do Comment On The A/V Quality Considering The Size Of The File..!


Video
ID : 1
Format : AVC
Format/Info : Advanced Video Codec
Format profile : [email protected]
Format settings, CABAC : Yes
Format settings, ReFrames : 8 frames
Codec ID : V_MPEG4/ISO/AVC
Duration : 21mn 34s
Bit rate : 948 Kbps
Width : 1 280 pixels
Height : 720 pixels
Display aspect ratio : 16:9
Frame rate mode : Constant
Frame rate : 23.976 (24000/1001) fps
Color space : YUV
Chroma subsampling : 4:2:0
Bit depth : 8 bits
Scan type : Progressive
Bits/(Pixel*Frame) : 0.043
Stream size : 146 MiB (84%)
Default : Yes
Forced : No

Audio
ID : 2
Format : AAC
Format/Info : Advanced Audio Codec
Format profile : HE-AAC / LC
Codec ID : A_AAC
Duration : 21mn 34s
Bit rate : 183 Kbps
Channel(s) : 6 channels
Channel positions : Front: L C R, Side: L R, LFE
Sampling rate : 48.0 KHz / 24.0 KHz
Frame rate : 23.438 fps (1024 spf)
Compression mode : Lossy
Delay relative to video : 31ms
Stream size : 28.2 MiB (16%)
Language : English
Default : Yes
Forced : No


Related Torrents

torrent name size files age seed leech

Sharing Widget


Download torrent
2.86 GB
seeders:45
leechers:26
Parks and Recreation S03 Season 3 720p 5.1Ch Web-DL ReEnc-DeeJayAhmed



To share this torrent use the code below and insert it into comments, status messages, forum posts or your signature.

Torrent: Parks and Recreation S03 Sea...1Ch Web-DL ReEnc-DeeJayAhmed

Trackers

tracker name
udp://tracker.openbittorrent.com:80/announce
udp://tracker.publicbt.com:80/announce
udp://tracker.coppersurfer.tk:6969/announce
udp://9.rarbg.me:2710/announce
udp://p4p.arenabg.com:1337/announce
http://tracker.trackerfix.com/announce
udp://9.rarbg.to:2710/announce
udp://tracker.opentrackr.org:1337/announce
http://tracker.dutchtracking.com/announce
µTorrent compatible trackers list

Locations

name
KickassTorrents
Torrent hash: D30C88005CB052ACF90D0243B8EC433091F1B8D2

Uploader Comments

2
DeeJayStark89.56K
Uploader
This one will take some time, no seedbox on this! kindly dont limit you upload speed!

All Comments

audio
9/10
video
9/10
please, leave only comments related to that torrent
Sign In

audio: 9video: 9
Thanks as usual :). Will seed as much as I can :)
This one will take some time, no seedbox on this! kindly dont limit you upload speed!

User Opinions

AndrewIII13.55K, MD.EK13.34K, mayhem6148078, R.....5386, sakib_shadman4924, Danz2073994, a2nomadxx2422, NicK9711456, iho8521012, SudoTheMan364 ... And 3 more
Report a bug Open chat
Sitemap